<?xml version="1.0" standalone="no"?>
<!DOCTYPE svg PUBLIC "-//W3C//DTD SVG 1.1//EN" "http://www.w3.org/Graphics/SVG/1.1/DTD/svg11.dtd" >
<svg xmlns="http://www.w3.org/2000/svg">
<metadata>Generated by IcoMoon</metadata>
<defs>
<font id="icomoon" horiz-adv-x="1024">
<font-face units-per-em="1024" ascent="960" descent="-64" />
<missing-glyph horiz-adv-x="1024" />
<glyph unicode="&#x20;" horiz-adv-x="512" d="" />
<glyph unicode="&#xe800;" glyph-name="rain-d" d="M184.32 555.52c0 97.28 81.92 174.080 174.080 174.080 56.32 0 102.4-25.6 133.12-61.44-30.72-30.72-61.44-71.68-76.8-112.64-81.92-10.24-143.36-56.32-174.080-128-35.84 35.84-56.32 76.8-56.32 128zM384 857.6h-51.2v-81.92h51.2v81.92zM138.24 581.12h-81.92v-51.2h81.92v51.2zM593.92 750.080l-35.84 35.84-61.44-56.32 35.84-35.84 61.44 56.32zM128 355.84l35.84-35.84 56.32 56.32-35.84 35.84-56.32-56.32zM220.16 729.6l-56.32 56.32-35.84-35.84 56.32-56.32 35.84 35.84zM855.040 458.24c0 5.12 0 5.12 0 10.24 0 112.64-92.16 204.8-204.8 204.8-97.28 0-179.2-71.68-199.68-163.84-5.12 0-15.36 0-20.48 0-87.040 0-163.84-71.68-163.84-163.84 0-87.040 71.68-158.72 158.72-163.84l-46.080-128 56.32-15.36 51.2 143.36h107.52l-46.080-128 46.080-15.36 51.2 143.36h107.52l-46.080-128 46.080-15.36 51.2 143.36h25.6c76.8 0 138.24 61.44 138.24 138.24 0 66.56-51.2 128-112.64 138.24z" />
<glyph unicode="&#xe801;" glyph-name="rain-n" d="M184.32 360.96c-15.36 0-25.6-5.12-40.96-5.12-46.080 0-92.16 20.48-92.16 20.48s117.76 81.92 117.76 220.16c0 0 0 0 0 0 0 138.24-117.76 220.16-117.76 220.16s46.080 20.48 92.16 20.48c128 0 235.52-102.4 240.64-230.4-112.64-15.36-199.68-107.52-199.68-220.16 0-10.24 0-20.48 0-25.6zM855.040 504.32c0 5.12 0 5.12 0 10.24 0 117.76-97.28 215.040-215.040 215.040-107.52-5.12-194.56-76.8-209.92-179.2-5.12 0-15.36 0-20.48 0-92.16 0-168.96-76.8-168.96-168.96s76.8-168.96 168.96-168.96l-51.2-138.24 51.2-15.36 51.2 153.6h112.64l-46.080-133.12 51.2-15.36 51.2 153.6h112.64l-46.080-133.12 51.2-15.36 51.2 153.6h25.6c81.92 0 148.48 66.56 148.48 148.48 0 61.44-51.2 117.76-117.76 133.12z" />
<glyph unicode="&#xe802;" glyph-name="mist" d="M512 540.16c-40.96 0-71.68 10.24-102.4 30.72-20.48 10.24-35.84 25.6-51.2 35.84-5.12 5.12-10.24 10.24-10.24 15.36-5.12 0-10.24 5.12-15.36 10.24-5.12 0-10.24 5.12-20.48 10.24-20.48 10.24-35.84 15.36-61.44 15.36-30.72 0-56.32-10.24-81.92-25.6-5.12-10.24-15.36-15.36-20.48-20.48l-5.12-5.12-51.2 51.2 5.12 5.12c40.96 46.080 97.28 66.56 158.72 66.56 40.96 0 71.68-10.24 102.4-25.6 20.48-10.24 35.84-25.6 51.2-40.96 0 0 5.12-5.12 10.24-10.24 5.12 0 5.12-5.12 10.24-10.24s15.36-10.24 20.48-15.36c20.48-5.12 35.84-10.24 61.44-10.24 30.72 0 51.2 10.24 66.56 15.36 5.12 5.12 10.24 5.12 15.36 10.24 10.24 5.12 15.36 15.36 25.6 20.48l10.24 10.24c10.24 10.24 25.6 25.6 46.080 35.84 25.6 15.36 61.44 20.48 92.16 20.48 56.32 0 112.64-25.6 158.72-66.56l5.12-5.12-51.2-51.2-5.12 5.12c-5.12 5.12-15.36 15.36-20.48 20.48-25.6 20.48-51.2 25.6-81.92 25.6s-51.2-10.24-66.56-15.36c-5.12-5.12-10.24-5.12-15.36-10.24-10.24-5.12-15.36-15.36-25.6-20.48l-10.24-10.24c-10.24-10.24-25.6-25.6-46.080-35.84-30.72-15.36-61.44-25.6-97.28-25.6v0zM512 355.84c35.84 0 66.56 5.12 92.16 20.48 20.48 10.24 35.84 20.48 46.080 35.84l10.24 10.24c10.24 10.24 15.36 15.36 25.6 20.48 5.12 5.12 10.24 5.12 15.36 10.24 15.36 10.24 30.72 15.36 66.56 15.36 30.72 0 56.32-10.24 81.92-25.6 5.12-5.12 15.36-10.24 20.48-20.48l5.12-5.12 51.2 51.2-5.12 5.12c-40.96 46.080-97.28 66.56-158.72 66.56-35.84 0-66.56-5.12-92.16-20.48-20.48-10.24-35.84-20.48-46.080-35.84l-10.24-10.24c-10.24-10.24-15.36-15.36-25.6-20.48-5.12-5.12-10.24-5.12-15.36-10.24-15.36-10.24-30.72-15.36-66.56-15.36-25.6 0-40.96 5.12-61.44 15.36 0 5.12-10.24 10.24-15.36 10.24-5.12 5.12-5.12 10.24-10.24 10.24-5.12 5.12-10.24 10.24-15.36 15.36-10.24 10.24-25.6 25.6-46.080 35.84-30.72 20.48-66.56 25.6-102.4 25.6-56.32 0-112.64-25.6-158.72-66.56l-5.12-5.12 51.2-51.2 5.12 5.12c5.12 5.12 15.36 15.36 20.48 20.48 25.6 20.48 51.2 25.6 81.92 25.6 25.6 0 40.96-5.12 61.44-15.36 10.24-5.12 15.36-10.24 20.48-15.36s10.24-5.12 10.24-10.24 10.24-5.12 10.24-10.24c15.36-10.24 30.72-25.6 51.2-40.96 35.84-15.36 66.56-20.48 107.52-20.48v0zM512 166.4c35.84 0 66.56 5.12 92.16 20.48 20.48 10.24 35.84 20.48 46.080 35.84l10.24 10.24c10.24 10.24 15.36 15.36 25.6 20.48 5.12 5.12 10.24 5.12 15.36 10.24 15.36 10.24 30.72 15.36 66.56 15.36 30.72 0 56.32-10.24 81.92-25.6 5.12-5.12 15.36-10.24 20.48-20.48l5.12-5.12 51.2 51.2-5.12 5.12c-40.96 46.080-97.28 66.56-158.72 66.56-35.84 0-66.56-5.12-92.16-20.48-20.48-10.24-35.84-20.48-46.080-35.84l-10.24-10.24c-10.24-10.24-15.36-15.36-25.6-20.48-5.12-5.12-10.24-5.12-15.36-10.24-15.36-10.24-30.72-15.36-66.56-15.36-25.6 0-40.96 5.12-61.44 15.36-10.24 5.12-15.36 10.24-20.48 15.36s-10.24 5.12-10.24 10.24-10.24 5.12-10.24 10.24c-15.36 10.24-30.72 25.6-51.2 40.96-30.72 20.48-66.56 25.6-102.4 25.6-56.32 0-112.64-25.6-158.72-66.56l-5.12-5.12 51.2-51.2 5.12 5.12c10.24 0 20.48 5.12 25.6 15.36 25.6 20.48 51.2 25.6 81.92 25.6 25.6 0 40.96-5.12 61.44-15.36 10.24-5.12 15.36-10.24 20.48-15.36 5.12 0 10.24-5.12 15.36-5.12 5.12-5.12 10.24-5.12 10.24-10.24 15.36-10.24 30.72-25.6 51.2-40.96 30.72-20.48 61.44-25.6 102.4-25.6v0z" />
<glyph unicode="&#xe803;" glyph-name="scattered-clouds" d="M960.040 311.64c0-97.4-77.92-175.32-175.32-175.32h-516.22c-112.010 0-204.54 92.53-204.54 204.54s92.53 204.54 204.54 204.54c9.74 0 19.48 0 29.22 0 19.48 121.75 126.62 214.28 253.24 214.28 141.23 0 258.11-116.88 258.11-258.11 0-4.87 0-9.74 0-14.61 87.66-14.61 150.97-87.66 150.97-175.32z" />
<glyph unicode="&#xe804;" glyph-name="shower-rain" d="M773.12 289.28l-51.2-148.48-51.2 20.48 40.96 133.12h-174.080l-51.2-148.48-51.2 20.48 40.96 133.12h-163.84l-51.2-148.48-51.2 20.48 46.080 122.88c-87.040 15.36-153.6 92.16-153.6 184.32 0 102.4 81.92 189.44 189.44 189.44 10.24 0 15.36 0 25.6 0 20.48 107.52 117.76 189.44 230.4 189.44 133.12 0 235.52-107.52 235.52-235.52 0-5.12 0-10.24 0-10.24 76.8-15.36 138.24-81.92 138.24-158.72 0-87.040-66.56-153.6-148.48-163.84zM522.24 58.88l51.2-20.48 51.2 153.6-51.2 20.48-51.2-153.6zM291.84 58.88l51.2-20.48 51.2 153.6-51.2 20.48-51.2-153.6z" />
<glyph unicode="&#xe805;" glyph-name="snow" d="M384 197.12l-20.48-20.48-25.6 25.6-30.72-25.6-20.48 20.48 25.6 25.6-25.6 25.6 20.48 25.6 25.6-25.6 25.6 25.6 20.48-20.48-20.48-30.72 25.6-25.6zM517.12 222.72l25.6 25.6-20.48 20.48-25.6-25.6-25.6 25.6-20.48-20.48 25.6-25.6-25.6-25.6 20.48-20.48 25.6 25.6 25.6-25.6 20.48 20.48-25.6 25.6zM686.080 273.92l-25.6-25.6-25.6 25.6-20.48-20.48 25.6-25.6-25.6-25.6 20.48-20.48 25.6 25.6 25.6-25.6 20.48 20.48-25.6 25.6 25.6 25.6-20.48 20.48zM312.32 140.8l-25.6-25.6-25.6 25.6-20.48-20.48 25.6-30.72-25.6-25.6 20.48-25.6 25.6 25.6 25.6-25.6 20.48 20.48-25.6 30.72 25.6 25.6-20.48 25.6zM476.16 140.8l-25.6-25.6-30.72 25.6-20.48-20.48 30.72-30.72-25.6-25.6 15.36-25.6 25.6 25.6 30.72-25.6 20.48 20.48-25.6 30.72 25.6 25.6-20.48 25.6zM640 140.8l-25.6-30.72-30.72 30.72-20.48-25.6 25.6-25.6-25.6-30.72 20.48-20.48 25.6 25.6 25.6-25.6 20.48 20.48-20.48 30.72 25.6 25.6-20.48 25.6zM896 473.6c0-81.92-66.56-153.6-153.6-153.6h-435.2c-102.4 0-179.2 81.92-179.2 179.2s76.8 179.2 179.2 179.2c10.24 0 15.36 0 25.6 0 15.36 102.4 102.4 179.2 215.040 179.2 122.88 0 225.28-102.4 225.28-225.28 0-5.12 0-5.12 0-10.24 66.56-10.24 122.88-71.68 122.88-148.48z" />
<glyph unicode="&#xe806;" glyph-name="thunderstorm" d="M747.52 340.48c81.92 0 153.6 66.56 153.6 153.6 0 76.8-56.32 138.24-128 148.48 0 5.12 0 5.12 0 10.24 0 122.88-102.4 225.28-225.28 225.28-107.52 0-199.68-81.92-220.16-184.32-5.12 0-15.36 0-25.6 0-97.28 0-174.080-76.8-174.080-174.080s81.92-179.2 179.2-179.2h117.76l-30.72-189.44 163.84 15.36-56.32-148.48 225.28 240.64-199.68-20.48 46.080 102.4h174.080z" />
<glyph unicode="&#xe807;" glyph-name="broken-clouds" d="M133.12 350.72c-61.44 0-112.64 51.2-112.64 112.64s51.2 112.64 112.64 112.64c0 0 0 0 5.12 0 0 10.24-5.12 20.48-5.12 30.72 0 97.28 76.8 174.080 174.080 174.080 66.56 0 122.88-35.84 148.48-87.040-46.080-40.96-81.92-87.040-102.4-143.36-112.64-5.12-199.68-92.16-220.16-199.68v0zM865.28 442.88c0 5.12 0 5.12 0 10.24 0 133.12-107.52 235.52-235.52 235.52-117.76 0-215.040-81.92-235.52-194.56-10.24 0-15.36 0-25.6 0-102.4 0-189.44-81.92-189.44-189.44 0-102.4 81.92-189.44 189.44-189.44h465.92c87.040 0 163.84 71.68 163.84 163.84 5.12 81.92-56.32 148.48-133.12 163.84z" />
<glyph unicode="&#xe808;" glyph-name="clear-sky-d" d="M762.88 448c0-138.24-112.64-250.88-250.88-250.88s-250.88 112.64-250.88 250.88 112.64 250.88 250.88 250.88 250.88-112.64 250.88-250.88zM537.6 878.080h-51.2v-117.76h56.32v117.76zM486.4 17.92h56.32v117.76h-56.32v-117.76zM824.32 473.6v-56.32h117.76v56.32h-117.76zM199.68 473.6h-117.76v-56.32h117.76v56.32zM834.56 734.72l-35.84 35.84-81.92-81.92 35.84-35.84 81.92 81.92zM189.44 161.28l35.84-35.84 81.92 81.92-35.84 35.84-81.92-81.92zM716.8 207.36l81.92-81.92 35.84 35.84-81.92 81.92-35.84-35.84zM307.2 688.64l-81.92 81.92-35.84-35.84 81.92-81.92 35.84 35.84z" />
<glyph unicode="&#xe809;" glyph-name="clear-sky-n" d="M752.64 448c0-189.44-153.6-348.16-348.16-348.16-66.56 0-133.12 30.72-133.12 30.72s174.080 122.88 174.080 317.44c0 0 0 5.12 0 5.12 0 194.56-174.080 317.44-174.080 317.44s66.56 30.72 133.12 30.72c194.56-5.12 348.16-158.72 348.16-353.28 0 0 0 0 0 0z" />
<glyph unicode="&#xe80a;" glyph-name="few-clouds-d" d="M148.48 488.96c0 107.52 87.040 189.44 189.44 189.44 61.44 0 112.64-25.6 148.48-71.68-40.96-25.6-71.68-66.56-87.040-117.76-87.040-5.12-158.72-61.44-194.56-138.24-35.84 35.84-56.32 81.92-56.32 138.24zM363.52 816.64h-51.2v-87.040h51.2v87.040zM97.28 514.56h-87.040v-51.2h87.040v51.2zM588.8 704l-35.84 35.84-61.44-61.44 35.84-35.84 61.44 61.44zM87.040 273.92l35.84-35.84 61.44 61.44-35.84 35.84-61.44-61.44zM189.44 678.4l-66.56 61.44-35.84-35.84 61.44-61.44 40.96 35.84zM885.76 381.44c0 5.12 0 5.12 0 10.24 0 122.88-102.4 225.28-225.28 225.28-112.64 0-204.8-81.92-220.16-184.32-5.12 0-15.36 0-25.6 0-97.28 0-179.2-81.92-179.2-179.2s81.92-179.2 179.2-179.2h445.44c87.040 0 153.6 66.56 153.6 153.6 0 81.92-56.32 143.36-128 153.6z" />
<glyph unicode="&#xe80b;" glyph-name="few-clouds-n" d="M168.96 273.92c-15.36-5.12-30.72-5.12-46.080-5.12-25.6 0-46.080 5.12-66.56 10.24 0 0-20.48 5.12-51.2 15.36 20.48 15.36 40.96 25.6 40.96 25.6 61.44 46.080 102.4 117.76 102.4 199.68s-40.96 153.6-102.4 199.68c0 0-20.48 15.36-40.96 25.6 20.48 10.24 51.2 15.36 51.2 15.36 20.48 20.48 46.080 25.6 66.56 25.6 138.24 0 256-112.64 256-256-117.76-10.24-209.92-112.64-209.92-235.52 0-5.12 0-15.36 0-20.48zM885.76 422.4c0 5.12 0 5.12 0 10.24 0 128-102.4 230.4-230.4 230.4-112.64 0-204.8-81.92-225.28-189.44-10.24 0-15.36 0-25.6 0-97.28 5.12-179.2-76.8-179.2-179.2s81.92-184.32 184.32-184.32h455.68c87.040 0 158.72 71.68 158.72 158.72-5.12 76.8-61.44 143.36-138.24 153.6z" />
<glyph unicode="&#xe80c;" glyph-name="drop" d="M512 130.56c-133.12 0-225.28 107.52-220.16 230.4 10.24 148.48 220.16 435.2 220.16 435.2s209.92-286.72 220.16-430.080c5.12-122.88-87.040-235.52-220.16-235.52z" />
<glyph unicode="&#xe80d;" glyph-name="wind" d="M373.76 437.76h-230.4v-92.16h225.28c20.48 0 46.080-10.24 61.44-20.48s20.48-35.84 20.48-61.44-10.24-46.080-20.48-61.44c-15.36-15.36-35.84-20.48-61.44-20.48v-92.16c51.2 0 92.16 20.48 122.88 51.2s51.2 76.8 51.2 122.88c0 51.2-20.48 92.16-51.2 122.88s-71.68 51.2-117.76 51.2zM834.56 396.8c-20.48 20.48-61.44 40.96-97.28 40.96h-143.36v-92.16h143.36c15.36 0 20.48-5.12 30.72-15.36s15.36-20.48 15.36-30.72v0c0-15.36-5.12-20.48-15.36-30.72s-20.48-15.36-30.72-15.36v-92.16c35.84 0 71.68 15.36 97.28 40.96 20.48 20.48 40.96 61.44 40.96 97.28v0c0 35.84-15.36 71.68-40.96 97.28zM732.16 652.8c0 40.96-20.48 76.8-46.080 102.4s-61.44 46.080-102.4 46.080v-92.16c15.36 0 25.6-5.12 40.96-20.48 10.24-10.24 20.48-20.48 20.48-40.96 0-15.36-5.12-25.6-20.48-40.96-10.24-10.24-20.48-20.48-40.96-20.48h-440.32v-92.16h435.2c40.96 0 76.8 20.48 102.4 46.080 30.72 30.72 51.2 71.68 51.2 112.64z" />
<glyph unicode="&#xe80e;" glyph-name="arrows-down" d="M138.24 637.44l66.56 107.52 307.2-184.32 307.2 184.32 66.56-107.52-373.76-225.28-373.76 225.28zM512 299.52l-256 153.6-66.56-107.52 322.56-194.56 322.56 194.56-66.56 112.64-256-158.72z" />
<glyph unicode="&#xe80f;" glyph-name="arrows-up" d="M885.76 258.56l-66.56-107.52-307.2 184.32-307.2-184.32-66.56 107.52 373.76 225.28 373.76-225.28zM512 596.48l256-153.6 66.56 107.52-322.56 194.56-322.56-194.56 66.56-112.64 256 158.72z" />
<glyph unicode="&#xe810;" glyph-name="cloud" d="M829.44 473.6c-5.12 0-10.24 0-15.36 0 10.24 61.44-30.72 122.88-92.16 138.24-20.48 5.12-40.96 5.12-61.44 0-20.48 56.32-71.68 107.52-133.12 122.88-107.52 25.6-215.040-35.84-240.64-138.24-5.12-15.36-5.12-30.72-5.12-46.080-61.44-5.12-112.64-51.2-128-112.64-20.48-81.92 25.6-163.84 107.52-184.32 15.36-5.12 30.72-5.12 46.080-5.12 10.24-46.080 40.96-81.92 87.040-92.16s97.28 5.12 122.88 40.96c15.36-10.24 35.84-20.48 56.32-25.6 92.16-25.6 184.32 30.72 209.92 122.88 0 0 0 0 0 0 51.2-10.24 97.28 15.36 112.64 66.56s-15.36 97.28-66.56 112.64z" />
<glyph unicode="&#xe811;" glyph-name="location" d="M803.84 499.2c-20.48 122.88-117.76 220.16-240.64 240.64v92.16h-102.4v-92.16c-122.88-20.48-220.16-117.76-240.64-240.64h-92.16v-102.4h92.16c20.48-122.88 117.76-220.16 240.64-240.64v-92.16h102.4v92.16c122.88 20.48 220.16 117.76 240.64 240.64h92.16v102.4h-92.16zM512 227.84c-122.88 0-220.16 97.28-220.16 220.16s97.28 220.16 220.16 220.16c122.88 0 220.16-97.28 220.16-220.16s-97.28-220.16-220.16-220.16zM660.48 448c0-81.92-66.56-148.48-148.48-148.48s-148.48 66.56-148.48 148.48c0 81.92 66.56 148.48 148.48 148.48s148.48-66.56 148.48-148.48z" />
<glyph unicode="&#xe900;" glyph-name="td-icons-circus" d="M254.537 108.617h111.177c55.589 93.623 111.177 251.611 111.177 409.6 8.777 52.663 17.554 131.657 26.331 198.949-46.811-105.326-122.88-193.097-122.88-193.097-32.183-193.097-87.771-336.457-125.806-415.451zM473.966 711.314c-49.737-49.737-149.211-134.583-260.389-172.617 0 0-11.703-231.131-201.874-427.154h117.029c134.583 190.171 196.023 424.229 196.023 424.229 43.886 29.257 105.326 111.177 149.211 175.543zM523.703 717.166c5.851-67.291 14.629-146.286 26.331-198.949 0-157.989 55.589-315.977 111.177-409.6h111.177c-38.034 78.994-93.623 222.354-122.88 415.451-5.851 0-78.994 87.771-125.806 193.097zM550.034 711.314c43.886-61.44 105.326-143.36 149.211-178.469 0 0 61.44-231.131 196.023-424.229h117.029c-190.171 196.023-201.874 427.154-201.874 427.154-111.177 40.96-210.651 125.806-260.389 175.543zM359.863 790.309c20.48-40.96 90.697-58.514 143.36-38.034 2.926 2.926 5.851 2.926 8.777 2.926v73.143c-61.44 0-73.143-55.589-152.137-38.034z" />
<glyph unicode="&#xe901;" glyph-name="td-icons-farm" d="M491.52 319.269c0-14.542-11.789-26.331-26.331-26.331s-26.331 11.789-26.331 26.331c0 14.542 11.789 26.331 26.331 26.331s26.331-11.789 26.331-26.331zM585.143 319.269c0-14.542-11.789-26.331-26.331-26.331s-26.331 11.789-26.331 26.331c0 14.542 11.789 26.331 26.331 26.331s26.331-11.789 26.331-26.331zM634.88 667.429c-35.109 20.48-78.994 29.257-122.88 29.257s-84.846-11.703-122.88-29.257c-184.32 40.96-283.794-76.069-292.571-204.8 70.217 32.183 81.92-29.257 152.137-29.257 0-146.286 117.029-263.314 263.314-263.314s263.314 117.029 263.314 263.314c70.217 0 81.92 61.44 152.137 29.257-8.777 128.731-108.251 245.76-292.571 204.8zM380.343 500.663c0 17.554 14.629 29.257 29.257 29.257 17.554 0 29.257-14.629 29.257-29.257 0-17.554-14.629-29.257-29.257-29.257s-29.257 14.629-29.257 29.257zM512 228.571c-64.366 0-114.103 40.96-114.103 90.697s52.663 90.697 114.103 90.697 114.103-40.96 114.103-90.697c0-49.737-49.737-90.697-114.103-90.697zM611.474 471.406c-17.554 0-29.257 14.629-29.257 29.257 0 17.554 14.629 29.257 29.257 29.257s29.257-14.629 29.257-29.257c2.926-14.629-11.703-29.257-29.257-29.257z" />
<glyph unicode="&#xe902;" glyph-name="td-icons-home" d="M216.503 357.303v-213.577h210.651v207.726h169.691v-207.726h210.651v213.577l-295.497 234.057zM763.611 714.24h-102.4v-78.994l-149.211 117.029-400.823-315.977 46.811-61.44 354.011 280.869 354.011-280.869 46.811 61.44-149.211 117.029z" />
<glyph unicode="&#xe903;" glyph-name="td-icons-pets" d="M801.646 398.263c0 23.406-5.851 46.811-14.629 70.217 26.331 58.514 52.663 152.137 2.926 260.389l-175.543-117.029c-32.183 8.777-67.291 14.629-105.326 14.629s-70.217-5.851-105.326-14.629l-175.543 117.029c-49.737-108.251-23.406-201.874 2.926-260.389-8.777-20.48-14.629-43.886-14.629-70.217 0-32.183 8.777-64.366 23.406-90.697-40.96-5.851-81.92-14.629-122.88-29.257l8.777-29.257c43.886 14.629 90.697 23.406 131.657 29.257 8.777-11.703 20.48-23.406 32.183-35.109-38.034-11.703-76.069-29.257-114.103-49.737l14.629-29.257c43.886 23.406 87.771 40.96 131.657 52.663 49.737-32.183 111.177-49.737 181.394-49.737 67.291 0 131.657 17.554 181.394 49.737 43.886-11.703 90.697-29.257 131.657-52.663l14.629 29.257c-38.034 20.48-76.069 35.109-114.103 49.737 11.703 11.703 23.406 23.406 32.183 35.109 43.886-5.851 87.771-14.629 131.657-29.257l8.777 29.257c-40.96 14.629-81.92 23.406-122.88 29.257 26.331 29.257 35.109 58.514 35.109 90.697zM394.971 351.451c-23.406 0-40.96 17.554-40.96 40.96s17.554 40.96 40.96 40.96c23.406 0 40.96-17.554 40.96-40.96s-17.554-40.96-40.96-40.96zM512 281.234c-20.48 0-38.034 11.703-38.034 26.331s17.554 26.331 38.034 26.331c20.48 0 38.034-11.703 38.034-26.331s-17.554-26.331-38.034-26.331zM629.029 351.451c-23.406 0-40.96 17.554-40.96 40.96s17.554 40.96 40.96 40.96c23.406 0 40.96-17.554 40.96-40.96s-17.554-40.96-40.96-40.96z" />
<glyph unicode="&#xe904;" glyph-name="td-icons-wild" d="M277.943 366.080l40.96 14.629 11.703 70.217 38.034 38.034 2.926 76.069 26.331 23.406-11.703 40.96 23.406 84.846-17.554 64.366-11.703-58.514-26.331-35.109 14.629-11.703-32.183-38.034 14.629-32.183-40.96-52.663v-35.109l-43.886-26.331 2.926-81.92-58.514-46.811-20.48-84.846-55.589-55.589 93.623 49.737 14.629 40.96 35.109 32.183zM804.571 518.217l32.183 38.034-26.331 114.103-26.331-73.143 5.851-35.109-32.183-43.886v-58.514l-35.109-29.257 11.703-29.257-38.034-23.406-14.629-99.474-58.514-64.366 23.406-40.96-35.109-8.777-38.034-67.291 117.029 58.514-5.851 46.811 40.96 17.554 23.406 46.811 8.777 70.217 26.331 17.554-2.926 70.217 38.034 55.589zM614.4 483.109l-17.554 78.994 38.034 20.48-11.703 73.143 38.034 114.103-35.109 96.549-17.554-87.771-38.034-55.589 23.406-23.406-46.811-52.663 17.554-43.886-38.034-58.514-11.703-87.771-49.737-38.034-17.554-114.103-84.846-73.143 5.851-76.069-114.103-137.509 160.914 102.4 32.183 46.811 5.851 73.143 70.217 46.811 17.554 35.109-14.629 52.663z" />
</font>
</defs>
</svg>
